Wednesday, May 17, 2017

NEW: KISS "Unplugged rehearsals 1995 volume 1" - 1DVD

Unplugged rehearsals 1995
volume 1 of 3

Recording: COMPILATION      
Quality: 9
Menu: NO
Cover: YES

Comments: 3-disc compilation, total time over 6 hours, of what looks like raw footage from the Unplugged rehearsals. Filmed with a single camera (or at least it looks that way), that have various positions throughout the filming, and on at least three different occasions. Lots of footage of idle time between actual playing but also a lot of rehearsing. Some odd songs played for fun. Picture quality is good, some focus problems here and there, and is overall nice and clear. Audio is very uneven, mainly because the camera is moving around a bit, but for the most part it sounds good. These are only rehearsals with Eric and Bruce, Ace and Peter never show up.

Download part 1 here
Download part 2 here
Download part 3 here
Download part 4 here
Download part 5 here
                       

NEW: KISS "The Making Of Hide Your Heart" - 1DVD

THE MAKING OF HIDE YOUR HEART

QUALITY: 9 (-)
MENU: NO
EXTRAS: NONE
COVER: YES

BEHIND THE SCENES OF THE HIDE YOUR HEART VIDEO SHOOT.
SHOT BY A HAND CAM.
ABOUT 65 MINS WORTH OF FOOTAGE.
INCLUDES A MINT VERSION OF THE FINISHED VIDEO

Download part 1 here
Download part 2 here
Download part 3 here
Download part 4 here
                     

Friday, March 24, 2017

NEW: KISS live in New York 1996 - 1DVD - July 28

Kiss
Alive/World Wide Tour
4th Night at Madison Square Garden
July 28, 1996 (4th Night)
(Single Cam Audience Shot)

1. Deuce
2. KOTNW
3. Do You Love Me?
4. Calling Dr. Love
5. Cold Gin
6. Let Me Go, Rock ‘n’ Roll
7. Shout it Out Loud
8. Watchin’ You
9. Firehouse
10. Shock Me/Guitar Solo
11. Strutter
12. Rock Bottom
13. Bass Solo/God of Thunder/Drum Solo
14. New York Groove
15. Love Gun
16. 100,000 Years
17. Black Diamond
18. Detroit Rock City
19. Rock and Roll all Nite

*Beth not played due to time constraints

Video to DVD Transfer NTSC. Unknown generation.

Download part 1 here
Download part 2 here
Download part 3 here
Download part 4 here
Download part 5 here
               

Tuesday, February 21, 2017

NEW: KISS live in Hollywood 1988 - 1DVD - February 12

Band: KISS
Date:1988-02-12
Venue: The Sportatorium
Recording: AUD
Quality: 8
Menu: NO
Extras: None
Comments: Master upgrade. Picture is still blurry but it's definitely clearer. Audio is much improved. There's some pixelation before the encores though.

Setlist :
Love gun
Cold gin
Bang bang you
Fits like a glove
Crazy crazy nights
Shout it out loud
Bruce's solo
Eric's solo
war machine
Reason to live
Heaven's on fire (slight cut)
Gene's solo
I love it loud
Lick it up
Rock and roll all nite
Oh Susannah
Tears are falling
Detroit rock city

fb53f6dda0efc047702a3f383a41d5a0 *VIDEO_TS/VIDEO_TS.BUP
fb53f6dda0efc047702a3f383a41d5a0 *VIDEO_TS/VIDEO_TS.IFO
b2ce778adbb38133f268bfbbb8108f16 *VIDEO_TS/VIDEO_TS.VOB
770f573e9035a522ed0977b99abf1e9a *VIDEO_TS/VTS_01_0.BUP
770f573e9035a522ed0977b99abf1e9a *VIDEO_TS/VTS_01_0.IFO
354e5bec5069616f7b3bb535270c8176 *VIDEO_TS/VTS_01_1.VOB
eb0019087976ef360e2c3ae5c33c46ad *VIDEO_TS/VTS_01_2.VOB
0d61fb7af6897b0d235eeb33630b4a99 *VIDEO_TS/VTS_01_3.VOB
099073340163a7363dba1855cce485ea *VIDEO_TS/VTS_01_4.VOB
a2f917956a20656a750414709c06bfc8 *TXT.txt

General
Complete name : G:\KISS-1988-2-12-Sportatorium, Hollywood, FL (DVD5)\VIDEO_TS\VTS_01_2.VOB
Format : MPEG-PS
File size : 1 024 MiB
Duration : 6s 765ms
Overall bit rate mode : Variable
Overall bit rate : 1 270 Mbps

Video
ID : 224 (0xE0)
Format : MPEG Video
Format version : Version 2
Format profile : Main@Main
Format settings, BVOP : Yes
Format settings, Matrix : Default
Format settings, GOP : M=3, N=15
Duration : 6s 658ms
Bit rate mode : Variable
Bit rate : 1 244 Mbps
Maximum bit rate : 9 334 Kbps
Width : 720 pixels
Height : 480 pixels
Display aspect ratio : 4:3
Frame rate : 29.970 fps
Standard : NTSC
Color space : YUV
Chroma subsampling : 4:2:0
Bit depth : 8 bits
Scan type : Interlaced
Scan order : Top Field First
Compression mode : Lossy
Bits/(Pixel*Frame) : 120.115
Time code of first frame : 00:24:01:00
Time code source : Group of pictures header
Stream size : 990 MiB (97%)
Color primaries : BT.601 NTSC
Transfer characteristics : BT.601
Matrix coefficients : BT.601

Audio
ID : 189 (0xBD)-128 (0x80)
Format : AC-3
Format/Info : Audio Coding 3
Mode extension : CM (complete main)
Format settings, Endianness : Big
Muxing mode : DVD-Video
Duration : 6s 765ms
Bit rate mode : Constant
Bit rate : 384 Kbps
Channel count : 2 channels
Channel positions : Front: L R
Sampling rate : 48.0 KHz
Bit depth : 16 bits
Compression mode : Lossy
Delay relative to video : -293ms
Stream size : 317 KiB (0%)

Download part 1 here
Download part 2 here
Download part 3 here
Download part 4 here
Download part 5 here
                     

NEW: KISS live in Middletown 1991 - 1DVD9 - June 17

KISS-1991-6-17-Orange County Speedway, Middletown, NY (DVD9)

Setlist:
I stole your love
Deuce
Heaven's on fire
Crazy crazy nights
Black diamond
Shout it out loud
Strutter
Calling Dr.Love
Rise to it
Fits like a glove
Lick it up
God of thunder
Forever
Hide your heart
Cold gin
Tears are falling
I love it loud
Love gun
Detroit rock city
I want you
Rock and roll all nite

Menu-Yes
Chapters-Yes
Audios-2.0 and 5.1
Version: MASTER-AUTHORED BY KF73


General
Complete name : G:\KISS-1991-6-17-Orange County Speedway, Middletown, NY\VIDEO_TS\VTS_01_2.VOB
Format : MPEG-PS
File size : 1 024 MiB
Duration : 14mn 35s
Overall bit rate : 9 807 Kbps

Video
ID : 224 (0xE0)
Format : MPEG Video
Format version : Version 2
Format profile : Main@Main
Format settings, BVOP : Yes
Format settings, Matrix : Custom
Format settings, GOP : M=3, N=18
Duration : 14mn 35s
Bit rate : 8 820 Kbps
Width : 720 pixels
Height : 480 pixels
Display aspect ratio : 4:3
Frame rate : 29.970 fps
Standard : NTSC
Color space : YUV
Chroma subsampling : 4:2:0
Bit depth : 8 bits
Scan type : Interlaced
Scan order : Top Field First
Compression mode : Lossy
Bits/(Pixel*Frame) : 0.852
Time code of first frame : 00:14:35:16
Time code source : Group of pictures header
Stream size : 916 MiB (89%)
Color primaries : BT.601 NTSC
Transfer characteristics : BT.601
Matrix coefficients : BT.601

Audio #1
ID : 189 (0xBD)-128 (0x80)
Format : AC-3
Format/Info : Audio Coding 3
Mode extension : CM (complete main)
Format settings, Endianness : Big
Muxing mode : DVD-Video
Duration : 14mn 35s
Bit rate mode : Constant
Bit rate : 384 Kbps
Channel count : 2 channels
Channel positions : Front: L R
Sampling rate : 48.0 KHz
Bit depth : 16 bits
Compression mode : Lossy
Delay relative to video : -635ms
Stream size : 40.1 MiB (4%)

Audio #2
ID : 189 (0xBD)-129 (0x81)
Format : AC-3
Format/Info : Audio Coding 3
Mode extension : CM (complete main)
Format settings, Endianness : Big
Muxing mode : DVD-Video
Duration : 14mn 35s
Bit rate mode : Constant
Bit rate : 448 Kbps
Channel count : 6 channels
Channel positions : Front: L C R, Side: L R, LFE
Sampling rate : 48.0 KHz
Bit depth : 16 bits
Compression mode : Lossy
Delay relative to video : -667ms
Stream size : 46.8 MiB (5%)

Download part 1 here
Download part 2 here
Download part 3 here
Download part 4 here
Download part 5 here
Download part 6 here
Download part 7 here
Download part 8 here
             

NEW: KISS live in Osaka 2001 - 1DVD - March 22

Band: KISS
Date: 2001-03-22
Venue: Osaka Castle Hall
Location: Osaka.Japan


Media: 1DVD
Version: Rozzy
Filming type: Audience
Generation: High
Video format: PAL
Aspect ratio: 4:3
Total running time: 141 Min

Chapters: 5 Minutes
Menus: Standard
Number of camera angles: 1
Number of audio selections: 1

Audio/Video Specs:
Format: AC3
Channels: stereo (2/0)
Sample Rate: 48000Hz


Detroit rock city
Deuce
Shout it out loud
Talk to me
I love it loud
Firehouse
Do you love me
Calling Dr. Love
Heaven's on fire
Let me go, rock 'n' roll
Shock me
Psycho circus
Lick it up
God of thunder
Cold gin
100,000 years
Love gun
I still love you/Black diamond
I was made for lovin' you
Rock and roll all nite

Download part 1 here
Download part 2 here
Download part 3 here
Download part 4 here
Download part 5 here
                             

Thursday, February 16, 2017

NEW: KISS live in Osaka 2001 - 2DVD - March 21

Band name: Kiss
Date: 2001-03-21
Venue: Osaka Castle Hall
Location: Osaka, Japan


Media: 2DVD
Filming type: Audience
Generation: High
Video format: NTSC
Aspect ratio: 4:3
Total running time: 137 Min

Chapters: Yes
Menus: Yes
Number of camera angles: 1
Number of audio selections: 1

Audio/Video Specs:
Format: AC3
Channels: 256 kb/s tot , stereo (2/0)
Sample Rate: 48000Hz


Detroit rock city
Deuce
Shout it out loud
Talk to me
I love it loud
Firehouse
Do you love me
Calling Dr. Love
Heaven's on fire
Let me go, rock n' roll
Shock me
Ace's solo
Psycho circus
Lick it up
Gene's solo
God of thunder
Eric's solo
Cold gin
100,000 years
Love gun
I still love you
Black diamond
I was made for lovin' you
Rock and roll all nite

Download part 1 here
Download part 2 here
Download part 3 here
Download part 4 here
Download part 5 here
Download part 6 here
Download part 7 here
Download part 8 here
Download part 9 here