Tuesday, February 21, 2017

NEW: KISS live in Hollywood 1988 - 1DVD - February 12

Band: KISS
Date:1988-02-12
Venue: The Sportatorium
Recording: AUD
Quality: 8
Menu: NO
Extras: None
Comments: Master upgrade. Picture is still blurry but it's definitely clearer. Audio is much improved. There's some pixelation before the encores though.

Setlist :
Love gun
Cold gin
Bang bang you
Fits like a glove
Crazy crazy nights
Shout it out loud
Bruce's solo
Eric's solo
war machine
Reason to live
Heaven's on fire (slight cut)
Gene's solo
I love it loud
Lick it up
Rock and roll all nite
Oh Susannah
Tears are falling
Detroit rock city

fb53f6dda0efc047702a3f383a41d5a0 *VIDEO_TS/VIDEO_TS.BUP
fb53f6dda0efc047702a3f383a41d5a0 *VIDEO_TS/VIDEO_TS.IFO
b2ce778adbb38133f268bfbbb8108f16 *VIDEO_TS/VIDEO_TS.VOB
770f573e9035a522ed0977b99abf1e9a *VIDEO_TS/VTS_01_0.BUP
770f573e9035a522ed0977b99abf1e9a *VIDEO_TS/VTS_01_0.IFO
354e5bec5069616f7b3bb535270c8176 *VIDEO_TS/VTS_01_1.VOB
eb0019087976ef360e2c3ae5c33c46ad *VIDEO_TS/VTS_01_2.VOB
0d61fb7af6897b0d235eeb33630b4a99 *VIDEO_TS/VTS_01_3.VOB
099073340163a7363dba1855cce485ea *VIDEO_TS/VTS_01_4.VOB
a2f917956a20656a750414709c06bfc8 *TXT.txt

General
Complete name : G:\KISS-1988-2-12-Sportatorium, Hollywood, FL (DVD5)\VIDEO_TS\VTS_01_2.VOB
Format : MPEG-PS
File size : 1 024 MiB
Duration : 6s 765ms
Overall bit rate mode : Variable
Overall bit rate : 1 270 Mbps

Video
ID : 224 (0xE0)
Format : MPEG Video
Format version : Version 2
Format profile : Main@Main
Format settings, BVOP : Yes
Format settings, Matrix : Default
Format settings, GOP : M=3, N=15
Duration : 6s 658ms
Bit rate mode : Variable
Bit rate : 1 244 Mbps
Maximum bit rate : 9 334 Kbps
Width : 720 pixels
Height : 480 pixels
Display aspect ratio : 4:3
Frame rate : 29.970 fps
Standard : NTSC
Color space : YUV
Chroma subsampling : 4:2:0
Bit depth : 8 bits
Scan type : Interlaced
Scan order : Top Field First
Compression mode : Lossy
Bits/(Pixel*Frame) : 120.115
Time code of first frame : 00:24:01:00
Time code source : Group of pictures header
Stream size : 990 MiB (97%)
Color primaries : BT.601 NTSC
Transfer characteristics : BT.601
Matrix coefficients : BT.601

Audio
ID : 189 (0xBD)-128 (0x80)
Format : AC-3
Format/Info : Audio Coding 3
Mode extension : CM (complete main)
Format settings, Endianness : Big
Muxing mode : DVD-Video
Duration : 6s 765ms
Bit rate mode : Constant
Bit rate : 384 Kbps
Channel count : 2 channels
Channel positions : Front: L R
Sampling rate : 48.0 KHz
Bit depth : 16 bits
Compression mode : Lossy
Delay relative to video : -293ms
Stream size : 317 KiB (0%)

Download part 1 here
Download part 2 here
Download part 3 here
Download part 4 here
Download part 5 here
                     

No comments:

Post a Comment