Tuesday, February 21, 2017

NEW: KISS live in Middletown 1991 - 1DVD9 - June 17

KISS-1991-6-17-Orange County Speedway, Middletown, NY (DVD9)

Setlist:
I stole your love
Deuce
Heaven's on fire
Crazy crazy nights
Black diamond
Shout it out loud
Strutter
Calling Dr.Love
Rise to it
Fits like a glove
Lick it up
God of thunder
Forever
Hide your heart
Cold gin
Tears are falling
I love it loud
Love gun
Detroit rock city
I want you
Rock and roll all nite

Menu-Yes
Chapters-Yes
Audios-2.0 and 5.1
Version: MASTER-AUTHORED BY KF73


General
Complete name : G:\KISS-1991-6-17-Orange County Speedway, Middletown, NY\VIDEO_TS\VTS_01_2.VOB
Format : MPEG-PS
File size : 1 024 MiB
Duration : 14mn 35s
Overall bit rate : 9 807 Kbps

Video
ID : 224 (0xE0)
Format : MPEG Video
Format version : Version 2
Format profile : Main@Main
Format settings, BVOP : Yes
Format settings, Matrix : Custom
Format settings, GOP : M=3, N=18
Duration : 14mn 35s
Bit rate : 8 820 Kbps
Width : 720 pixels
Height : 480 pixels
Display aspect ratio : 4:3
Frame rate : 29.970 fps
Standard : NTSC
Color space : YUV
Chroma subsampling : 4:2:0
Bit depth : 8 bits
Scan type : Interlaced
Scan order : Top Field First
Compression mode : Lossy
Bits/(Pixel*Frame) : 0.852
Time code of first frame : 00:14:35:16
Time code source : Group of pictures header
Stream size : 916 MiB (89%)
Color primaries : BT.601 NTSC
Transfer characteristics : BT.601
Matrix coefficients : BT.601

Audio #1
ID : 189 (0xBD)-128 (0x80)
Format : AC-3
Format/Info : Audio Coding 3
Mode extension : CM (complete main)
Format settings, Endianness : Big
Muxing mode : DVD-Video
Duration : 14mn 35s
Bit rate mode : Constant
Bit rate : 384 Kbps
Channel count : 2 channels
Channel positions : Front: L R
Sampling rate : 48.0 KHz
Bit depth : 16 bits
Compression mode : Lossy
Delay relative to video : -635ms
Stream size : 40.1 MiB (4%)

Audio #2
ID : 189 (0xBD)-129 (0x81)
Format : AC-3
Format/Info : Audio Coding 3
Mode extension : CM (complete main)
Format settings, Endianness : Big
Muxing mode : DVD-Video
Duration : 14mn 35s
Bit rate mode : Constant
Bit rate : 448 Kbps
Channel count : 6 channels
Channel positions : Front: L C R, Side: L R, LFE
Sampling rate : 48.0 KHz
Bit depth : 16 bits
Compression mode : Lossy
Delay relative to video : -667ms
Stream size : 46.8 MiB (5%)

Download part 1 here
Download part 2 here
Download part 3 here
Download part 4 here
Download part 5 here
Download part 6 here
Download part 7 here
Download part 8 here
             

No comments:

Post a Comment